judas priest demolition free download

Judas Priest Demolition Free Download -> http://tinyurl.com/m4mr37a




















































Judas Priest Demolition Free Download

Judas Priest - Demolition (2001) - 01 - Machine Man download Check 05:35 min 06 Devil Digger 04:45 320 KBps 10,89 mb 02 One On One 06:44 320 KBps 15,43 mb 6Subterfuge [05:12]1110 Subterfuge 05:12 320 KBps 11,93 mb 12

Copyright AkaDownload - full free download you want 2015-2017 .One On One [06:44]03HOME DISCOGRAPHY HI-RES POP, DISCO, EURODANCE INDIE, ALTERNATIVE, PUNK AMERICANA, COUNTRY, FOLK ROCK, METAL R'N'B, SOUL JAZZ BLUES HIP-HOP, REGGAE ELECTRONIC NEW AGE, INSTRUMENTAL VA HD VIDEO DVD CLASSICAL SOUNDTRACK September 2014, 1:14Judas Priest / Demolition (VICP-61349)Used drive : ASUS BW-12D1S-U Adapter: 1 ID: 0Read mode : SecureUtilize accurate stream : YesDefeat audio cache : YesMake use of C2 pointers : NoRead offset correction : 667Overread into Lead-In and Lead-Out : NoFill up missing offset samples with silence : YesDelete leading and trailing silent blocks : NoNull samples used in CRC calculations : YesUsed interface : Native Win32 interface for Win NT & 2000Used output format : User Defined EncoderSelected bitrate : 1024 kBit/sQuality : HighAdd ID3 tag : NoCommand line compressor : C:Program Files (x86)FLACflac.exeAdditional command line options : -V -8 -T "Date=%year%" -T "Genre=%genre%" %source%TOC of the extracted CD Track Start Length Start sector End sector --------------------------------------------------------- 1 0:00.00 5:35.70 0 25194 2 5:35.70 6:44.22 25195 55516 3 12:20.17 6:18.45 55517 83911 4 18:38.62 3:19.55 83912 98891 5 21:58.42 4:28.25 98892 119016 6 26:26.67 4:45.25 119017 140416 7 31:12.17 6:18.28 140417 168794 8 37:30.45 5:41.12 168795 194381 9 43:11.57 5:28.45 194382 219026 10 48:40.27 5:12.50 219027 242476 11 53:53.02 4:57.58 242477 264809 12 58:50.60 6:45.35 264810 295219 13 65:36.20 5:19.60 295220 319204 14 70:56.05 3:45.60 319205 336139 Range status and errorsSelected range Filename D:Ripped By liveevilJudas Priest - Demolition (VICP-61349).wav Peak level 98.8 % Extraction speed 5.0 X Range quality 100.0 % Test CRC 3D11C1A3 Copy CRC 3D11C1A3 Copy OKNo errors occurred AccurateRip summary Track 1 accurately ripped (confidence 3) [548D4D1E] (AR v2)Track 2 accurately ripped (confidence 3) [8A7BBC9A] (AR v2)Track 3 accurately ripped (confidence 3) [D7AEDF50] (AR v2)Track 4 accurately ripped (confidence 3) [EA3F90A8] (AR v2)Track 5 accurately ripped (confidence 3) [5C338D6C] (AR v2)Track 6 accurately ripped (confidence 3) [ECA34DED] (AR v2)Track 7 accurately ripped (confidence 3) [F859011C] (AR v2)Track 8 accurately ripped (confidence 3) [A5E54A03] (AR v2)Track 9 accurately ripped (confidence 3) [6274D128] (AR v2)Track 10 accurately ripped (confidence 3) [40D041B3] (AR v2)Track 11 accurately ripped (confidence 3) [80CDDCFA] (AR v2)Track 12 accurately ripped (confidence 3) [08CE8F3A] (AR v2)Track 13 accurately ripped (confidence 3) [97CEEB71] (AR v2)Track 14 accurately ripped (confidence 3) [1E5AC815] (AR v2) All tracks accurately rippedEnd of status report==== Log checksum EC00C11E6BE41321CA28BB9B99DE64DFCA876B97D8C25607C05813D621F01C72 ====" (.CUE)"REM GENRE "Heavy Metal"REM DATE 2001REM DISCID C111810EREM COMMENT "ExactAudioCopy v1.0b3"PERFORMER "Judas Priest"TITLE "Demolition (2001, Victor, VICP-61349, Japan)"FILE "Judas Priest - Demolition (VICP-61349).flac" WAVE TRACK 01 AUDIO TITLE "Machine Man" PERFORMER "Judas Priest" INDEX 01 00:00:00 TRACK 02 AUDIO TITLE "One On One" PERFORMER "Judas Priest" INDEX 01 05:35:70 TRACK 03 AUDIO TITLE "Hell Is Home" PERFORMER "Judas Priest" INDEX 00 12:18:16 INDEX 01 12:20:17 TRACK 04 AUDIO TITLE "Jekyll And Hyde" PERFORMER "Judas Priest" INDEX 00 18:38:51 INDEX 01 18:38:62 TRACK 05 AUDIO TITLE "Close To You" PERFORMER "Judas Priest" INDEX 01 21:58:42 TRACK 06 AUDIO TITLE "Devil Digger" PERFORMER "Judas Priest" INDEX 01 26:26:67 TRACK 07 AUDIO TITLE "Bloodsuckers" PERFORMER "Judas Priest" INDEX 01 31:12:17 TRACK 08 AUDIO TITLE "In Between" PERFORMER "Judas Priest" INDEX 01 37:30:45 TRACK 09 AUDIO TITLE "Feed on Me" PERFORMER "Judas Priest" INDEX 01 43:11:57 TRACK 10 AUDIO TITLE "Subterfuge" PERFORMER "Judas Priest" INDEX 01 48:40:27 TRACK 11 AUDIO TITLE "Lost And Found" PERFORMER "Judas Priest" INDEX 00 53:52:18 INDEX 01 53:53:02 TRACK 12 AUDIO TITLE "Cyberface" PERFORMER "Judas Priest" INDEX 01 58:50:60 TRACK 13 AUDIO TITLE "Metal Messiah" PERFORMER "Judas Priest" INDEX 01 65:36:20 TRACK 14 AUDIO TITLE "Whats My Name (Bonus Track)" PERFORMER "Judas Priest" INDEX 00 70:49:16 INDEX 01 70:56:05 DOWNLOAD report dead links other albums: Judas Priest Download for free Judas Priest - Turbo 30 (2017) [Remastered, 30th Anniversary Deluxe Edition] Judas Priest - Battle Cry (2016) [Blu-Ray 1080i] Judas Priest - Nostradamus (2008) Judas Priest - Angel Of Retribution (2005) Judas Priest - Jugulator (1997) Judas Priest - Painkiller (1990) Judas Priest - Ram It Down (1988) Judas Priest - Turbo (1986) Judas Priest - Defenders Of The Faith (1984) Judas Priest - Screaming For Vengeance (1982) Judas Priest - Point Of Entry (1981) Judas Priest - British Steel (1980) Judas Priest - Stained Class (1978) Judas Priest - Killing Machine [Hell Bent For Leather] (1978) Judas Priest - Sin After Sin (1977) Judas Priest - Sad Wings Of Destiny (1976) Judas Priest - Rocka Rolla (1974) Judas Priest - Battle Cry (2016) Judas Priest - Redeemer Of Souls (2014) [BSCD2] Judas Priest - Redeemer Of Souls - 2014 (2CD) (0) Comments To Judas Priest - Demolition (2001) Be the First to Comment Username * Email * Comment : Cliff Richard - JustSeptember 2014, 17:04Judas Priest / Demolition (SPV 088-72420 CD Ltd)Used drive : ASUS BW-12D1S-U Adapter: 1 ID: 0Read mode : SecureUtilize accurate stream : YesDefeat audio cache : YesMake use of C2 pointers : NoRead offset correction : 667Overread into Lead-In and Lead-Out : NoFill up missing offset samples with silence : YesDelete leading and trailing silent blocks : NoNull samples used in CRC calculations : YesUsed interface : Native Win32 interface for Win NT & 2000Used output format : User Defined EncoderSelected bitrate : 1024 kBit/sQuality : HighAdd ID3 tag : NoCommand line compressor : C:Program Files (x86)FLACflac.exeAdditional command line options : -V -8 -T "Date=%year%" -T "Genre=%genre%" %source%TOC of the extracted CD Track Start Length Start sector End sector --------------------------------------------------------- 1 0:00.00 5:35.70 0 25194 2 5:35.70 6:44.25 25195 55519 3 12:20.20 6:18.42 55520 83911 4 18:38.62 3:19.55 83912 98891 5 21:58.42 4:28.25 98892 119016 6 26:26.67 4:45.25 119017 140416 7 31:12.17 6:18.28 140417 168794 8 37:30.45 5:41.12 168795 194381 9 43:11.57 5:28.48 194382 219029 10 48:40.30 5:12.50 219030 242479 11 53:53.05 4:57.55 242480 264809 12 58:50.60 6:45.35 264810 295219 13 65:36.20 5:13.42 295220 318736 14 70:49.62 3:54.10 318737 336296 15 74:43.72 4:10.15 336297 355061 Range status and errorsSelected range Filename D:Ripped By liveevilJudas Priest - Demolition (SPV 088-72420 CD Ltd).wav Peak level 98.8 % Extraction speed 8.3 X Range quality 100.0 % Test CRC 77611D02 Copy CRC 77611D02 Copy OKNo errors occurred AccurateRip summary Track 1 accurately ripped (confidence 22) [07CDF99F] (AR v2)Track 2 accurately ripped (confidence 22) [AC4C3AF0] (AR v2)Track 3 accurately ripped (confidence 22) [40C5D054] (AR v2)Track 4 accurately ripped (confidence 22) [192C1173] (AR v2)Track 5 accurately ripped (confidence 22) [47B32AA0] (AR v2)Track 6 accurately ripped (confidence 22) [564B650A] (AR v2)Track 7 accurately ripped (confidence 22) [1BC0A05C] (AR v2)Track 8 accurately ripped (confidence 22) [F88EF804] (AR v2)Track 9 accurately ripped (confidence 22) [0D0F78FA] (AR v2)Track 10 accurately ripped (confidence 21) [311E4B45] (AR v2)Track 11 accurately ripped (confidence 22) [563E4205] (AR v2)Track 12 accurately ripped (confidence 22) [827497C3] (AR v2)Track 13 accurately ripped (confidence 22) [4E7DBC14] (AR v2)Track 14 accurately ripped (confidence 22) [BFB48557] (AR v2)Track 15 accurately ripped (confidence 22) [6D4BB2C2] (AR v2) All tracks accurately rippedEnd of status report==== Log checksum E1B79F39A70A29B0345A0C3EAEE190A57B6BEE638C1A401DF7F7180EA1D419D3 ====" (.CUE)"REM GENRE "Heavy Metal"REM DATE 2001REM DISCID CF127E0FREM COMMENT "ExactAudioCopy v1.0b3"PERFORMER "Judas Priest"TITLE "Demolition (2001, SPV, SPV 088-72420 CD Ltd, Germany)"FILE "Judas Priest - Demolition (SPV 088-72420 CD Ltd).flac" WAVE TRACK 01 AUDIO TITLE "Machine Man" PERFORMER "Judas Priest" INDEX 01 00:00:00 TRACK 02 AUDIO TITLE "One On One" PERFORMER "Judas Priest" INDEX 01 05:35:70 TRACK 03 AUDIO TITLE "Hell Is Home" PERFORMER "Judas Priest" INDEX 00 12:18:16 INDEX 01 12:20:20 TRACK 04 AUDIO TITLE "Jekyll And Hyde" PERFORMER "Judas Priest" INDEX 00 18:38:52 INDEX 01 18:38:62 TRACK 05 AUDIO TITLE "Close To You" PERFORMER "Judas Priest" INDEX 01 21:58:42 TRACK 06 AUDIO TITLE "Devil Digger" PERFORMER "Judas Priest" INDEX 01 26:26:67 TRACK 07 AUDIO TITLE "Bloodsuckers" PERFORMER "Judas Priest" INDEX 01 31:12:17 TRACK 08 AUDIO TITLE "In Between" PERFORMER "Judas Priest" INDEX 01 37:30:45 TRACK 09 AUDIO TITLE "Feed On Me" PERFORMER "Judas Priest" INDEX 01 43:11:57 TRACK 10 AUDIO TITLE "Subterfuge" PERFORMER "Judas Priest" INDEX 00 48:40:27 INDEX 01 48:40:30 TRACK 11 AUDIO TITLE "Lost And Found" PERFORMER "Judas Priest" INDEX 00 53:52:17 INDEX 01 53:53:05 TRACK 12 AUDIO TITLE "Cyberface" PERFORMER "Judas Priest" INDEX 01 58:50:60 TRACK 13 AUDIO TITLE "Metal Messiah" PERFORMER "Judas Priest" INDEX 01 65:36:20 TRACK 14 AUDIO TITLE "Rapid Fire (Live) (Bonus Track)" PERFORMER "Judas Priest" INDEX 00 70:49:36 INDEX 01 70:49:62 TRACK 15 AUDIO TITLE "The Green Manalishi (With The Two Pronged Crown) (Live)" PERFORMER "Judas Priest" INDEX 01 74:43:72 DOWNLOAD 2001 Judas Priest - Demolition (Victor, VICP-61349, Japan):01Judas Priest - Demolition (2001) - 04 - Jekyll And Hyde download Check 03:19 min Machine Man [05:35]02

September 2014, 11:31Judas Priest / Demolition (7567930922, CD 2)Used drive : ASUS BW-12D1S-U Adapter: 1 ID: 0Read mode : SecureUtilize accurate stream : YesDefeat audio cache : YesMake use of C2 pointers : NoRead offset correction : 667Overread into Lead-In and Lead-Out : NoFill up missing offset samples with silence : YesDelete leading and trailing silent blocks : NoNull samples used in CRC calculations : YesUsed interface : Native Win32 interface for Win NT & 2000Used output format : User Defined EncoderSelected bitrate : 1024 kBit/sQuality : HighAdd ID3 tag : NoCommand line compressor : C:Program Files (x86)FLACflac.exeAdditional command line options : -V -8 -T "Date=%year%" -T "Genre=%genre%" %source%TOC of the extracted CD Track Start Length Start sector End sector --------------------------------------------------------- 1 0:00.00 3:46.12 0 16961 2 3:46.12 4:11.00 16962 35786 3 7:57.12 4:01.60 35787 53921 Range status and errorsSelected range Filename D:Ripped By liveevilJudas Priest - Demolition (7567930922, CD 2).wav Peak level 100.0 % Extraction speed 5.3 X Range quality 100.0 % Test CRC BD7EC9A2 Copy CRC BD7EC9A2 Copy OKNo errors occurred AccurateRip summary Track 1 accurately ripped (confidence 2) [624D81F3] (AR v2)Track 2 accurately ripped (confidence 2) [371A929B] (AR v2)Track 3 accurately ripped (confidence 2) [F9476D77] (AR v2) All tracks accurately rippedEnd of status report==== Log checksum 37CAB9B7E95392BE30D3FEBE0799CD886A3337DF9F9D4C639EFDE7FC905D7716 ====" (.CUE)"REM GENRE "Heavy Metal"REM DATE 2001REM DISCID 2202CE03REM COMMENT "ExactAudioCopy v1.0b3"PERFORMER "Judas Priest"TITLE "Demolition (2001, Atlantic, 7567930922, Australia, 2 CD Tour Edition, CD 2)"FILE "Judas Priest - Demolition (7567930922, CD 2).flac" WAVE TRACK 01 AUDIO TITLE "Whats My Name" PERFORMER "Judas Priest" INDEX 01 00:00:00 TRACK 02 AUDIO TITLE "The Green Manalishi (Live)" PERFORMER "Judas Priest" INDEX 01 03:46:12 TRACK 03 AUDIO TITLE "Rapid Fire (Live)" PERFORMER "Judas Priest" INDEX 01 07:57:12 DOWNLOAD 2001 Judas Priest - Demolition (Steamhammer, SPV 085-72422 CD, Germany):01# Track Name Time Bitrate Size Judas Priest - Demolition (2001) - 03 - Hell Is Home download Check 06:18 min FLAC DOWNLOAD FOR FREE WITHOUT REGISTERING Rock, Metal Judas Priest - Demolition (2001) flac TOP ALBUMS OF THE WEEK - DOWNLOAD FOR FREE Metal Messiah [05:14]" "Exact Audio Copy V1.0 beta 3 from 29Bloodsuckers (192kbps)11.17

Judas Priest (2001 - Demolition) - Bloodsuckers download Check 06:18 min Judas Priest - Bloodsuckers (demolition 2001) download Check 06:18 min Judas Priest (2001 - Demolition) - Feed On Me download Check 05:28 min Jekyll And Hyde [03:19]05End of Results Feed On Me [05:28]10ATB - neXt (2017) Sheryl Crow - Be Myself (2017) Procol Harum - Novum (2017) Parov Stelar - The Burning Spider (2017) Incubus - 8 (2017) Bee Gees - Timeless: The All-Time Greatest Hits (2017) Barry Manilow - This Is My Town: Songs of New York (2017) In Between [05:41]09Judas Priest - Lost And Found [demolition] (2001) download Check 04:57 min Cyberface [06:45]13 9e3039a1f5
what you mean free mp3 download
chay i am mp3 download
street dance free download music
microsoft windows vista ultimate download iso
download hess more yes boss
omg oh my god mp3 songs free download 320kbps
call recorder pro era ltda free download
lily collins i believe in love mp3 free download
free download themes prestashop 1.5.3
intego internet security barrier x6 dual protection download